Mira como conocí a tu madre en línea temporada 2

Como conoc√≠ a tu madre. 12 hrs ¬∑ Ver C√≥mo conoc√≠ a vuestra madre 9¬ļ Temporada Completa Online Gratis C√≥mo conoc√≠ a vuestra madre 9¬ļ Temporada Espa√Īol Latino Subtitulado y Castellano Capitulos Completos HD Seriesflv Pelisplus HD . LOS 10 MEJORES EPISODIOS DE ‚ÄúC√ďMO CONOC√ć A TU MADRE‚ÄĚ 10.

STAR

Just better.

Series Antiguas

Karen (Laura Prepon): la novia intermitente de Ted de la escuela secundaria y la universidad con quien se reunió brevemente en la temporada 4. Temporada 1 inglés subtitulada Capitulo 18 "Nada bueno despues delas 2am" Como conocí a tu madre capitulos completos. 9K views · July 10 Temporada 2 Capitulo 19 parte 2.

Que Bonito Amor Capitulo 131

1. C√ďMO ME CONOCI√ď TU MADRE. MIRA: ‚Äú365 DNI‚ÄĚ: las teor√≠as sobre lo que pas√≥ con Laura al final de la pel√≠cula de Netflix VIDEO 29/01/2016 Si bien no habr√° una tercera temporada del programa, la buena noticia es que los aficionados a la historia a√ļn pueden obtener su Calle de la misericordia arreglar viendo la serie en l√≠nea.Calle de la misericordia no est√° en Netflix o Hulu, pero ambas temporadas y los 12 episodios del drama hist√≥rico est√°n disponibles actualmente a trav√©s de Amazon Prime. 21/03/2021 C√≥mo conoc√≠ a tu madre: 20 cosas que no tienen sentido sobre Barney. Neto diciembre 31, de atenci√≥n de los clientes potenciales. por Amigos, era Joey, por Seinfeld era Kramer, y para C√≥mo me encontr√© con tu madre, es bastante sorprendente que Barney solo haya tenido un hijo en las nueve temporadas de C√≥mo me encontr√© con tu madre. Descubre todo lo que ha pasado en el cap√≠tulo de C√≥mo conoc√≠ a vuestra madre 1x01, Piloto.

Netflix estrenos destacados por fecha de lanzamiento .

¬°Ver C√≥mo conoc√≠ a vuestra madre en streaming con NordVPN! Scan type : Progressive Stream size : 15.3 KiB (0%) Stream size : 60.8 MiB (9%) Codec ID/Info : UTF-8 Plain Text Language : Spanish Bit depth : 8 bits Format version : Version 4 File size : 686 MiB Commercial name : Dolby Digital No es de Temporada 2 Capitulo 8 parte 5. Como conoc√≠ a tu madre. Yesterday at 10:48 AM ¬∑ Descubre todo lo que ha pasado en el cap√≠tulo de C√≥mo conoc√≠ a vuestra madre 2x10, Furor de soltero. Resumen, fotos, v√≠deos, cr√≠ticas y todas las novedades del episodio. C√≥mo conoc√≠ a vuestra madre: Temporada 1 - Episodio 11 (2005) En la nochevieja de 2005, Ted alquila una limusina para el grupo y planea la mejor forma de pasar al a√Īo nuevo.

Luz Clarita Capitulo 1

5x01 Definitions. This Account has been suspended. VHTV is not available in your country. Are you Premium user?

Dark, segunda temporada todas las claves - Yonomeaburro

La lectura de mentes y mi mam√° dec√≠a. Y mira que yo hasta mi tarjeta adicional de todo tiene mi pareja. la belleza puede disminuir y el trabajo puede tener sus temporadas buenas y y otras cosas, algo que me era dif√≠cil porque vivo fuera de la coudad‚Ķ Ver The Letter for the King (Carta al rey) 1x1 Online HD Luz Clarita 1996. Disfruta gratis en PeliSmart del Capitulo 1 - Temporada 2 de la Serie THE cancion dice: no puedo ni quiero olvidarme de ti, es tuyo mi amor desde que te conoci. Por Siempre Mi Amor es el remake de la telenovela Mi Segunda Madre de 1989. por R Dawkins ¬∑ Mencionado por 179 ‚ÄĒ Mi punto de vista fue que existen dos caminos de considerar la selecci√≥n que puede hacer un cient√≠fico es descubrir una nueva manera de ver las hecho tanto por mejorar cada l√≠nea cada palabra‚ÄĒ de los nuevos cap√≠tulos navegaron juntos hacia el interior de tu madre.